USB MultiBoot. | Dark River 2017 1080p BluRay x264-EiDER | Malaviya

+ ShareSpark.net »  :::: Dubbed Zone (Dubbed English in Hindi) » English Movies Dubbed in Hindi
|- Insurgent 2015 x264 720p Dual Audio [Hindi + Eng] BluRay Esubs Exclusive Maher{1.0GB} by JacKRoSe

Gif Cards 25% Off

Insurgent 2015 x264 720p Dual Audio [Hindi + Eng] BluRay Esubs Exclusive Maher{1.0GB} by JacKRoSe

0 Members and 1 Guest are viewing this topic.

August 10, 2018, 07:09:14 PM
  • Conqueror
  • Royal Member
  • *****
  • Topic Author
  • Thank You: 467
  • Reputation: 176
  • Activity:
    31.8%
  • Country: in
  • Posts: 1060
  • Topics: 465
  • Join Date: Oct 2015
  • Hit ThanX Button 🔳 N Repute Button 🔳
Insurgent 2015 x264 720p Dual Audio [Hindi + Eng] BluRay Esubs Exclusive Maher{1.0GB} by JacKRoSe




Format                                   : Matroska
Format version                           : Version 4 / Version 2
File size                                : 1.00 GiB
Duration                                 : 1 h 59 min
Overall bit rate                         : 1 204 kb/s
Encoded date                             : UTC 2018-08-09 09:24:51
Writing application                      : mkvmerge v9.7.1 ('Pandemonium') 64bit
Writing library                          : libebml v1.3.4 + libmatroska v1.4.5

Video
ID                                       : 1
Format                                   : AVC
Format/Info                              : Advanced Video Codec
Format profile                           : [email protected]
Format settings                          : CABAC / 4 Ref Frames
Format settings, CABAC                   : Yes
Format settings, RefFrames               : 4 frames
Codec ID                                 : V_MPEG4/ISO/AVC
Duration                                 : 1 h 59 min
Bit rate                                 : 918 kb/s
Width                                    : 1 280 pixels
Height                                   : 536 pixels
Display aspect ratio                     : 2.40:1
Frame rate mode                          : Constant
Frame rate                               : 23.976 (24000/1001) FPS
Original frame rate                      : 23.976 (23976/1000) FPS
Color space                              : YUV
Chroma subsampling                       : 4:2:0
Bit depth                                : 8 bits
Scan type                                : Progressive
Bits/(Pixel*Frame)                       : 0.056
Stream size                              : 781 MiB (76%)
Writing library                          : x264 core 123 r2189 35cf912
Encoding settings                        :
Default                                  : Yes
Forced                                   : No
Color range                              : Limited
Color primaries                          : BT.709
Matrix coefficients                      : BT.709

Audio #1
ID                                       : 2
Format                                   : AAC
Format/Info                              : Advanced Audio Codec
Format profile                           : LC
Codec ID                                 : A_AAC-2
Duration                                 : 1 h 59 min
Bit rate                                 : 93.8 kb/s
Channel(s)                               : 2 channels
Channel positions                        : Front: L R
Sampling rate                            : 48.0 kHz
Frame rate                               : 46.875 FPS (1024 SPF)
Compression mode                         : Lossy
Stream size                              : 79.8 MiB (8%)
Language                                 : English
Default                                  : No
Forced                                   : No

Audio #2
ID                                       : 3
Format                                   : AAC
Format/Info                              : Advanced Audio Codec
Format profile                           : LC
Codec ID                                 : A_AAC-2
Duration                                 : 1 h 59 min
Bit rate                                 : 192 kb/s
Channel(s)                               : 2 channels
Channel positions                        : Front: L R
Sampling rate                            : 48.0 kHz
Frame rate                               : 46.875 FPS (1024 SPF)
Compression mode                         : Lossy
Stream size                              : 161 MiB (16%)
Title                                    : BY-MAHER
Language                                 : Hindi
Default                                  : Yes
Forced                                   : Yes

Text
ID                                       : 4
Format                                   : UTF-8
Codec ID                                 : S_TEXT/UTF8
Codec ID/Info                            : UTF-8 Plain Text
Duration                                 : 1 h 47 min
Bit rate                                 : 44 b/s
Count of elements                        : 1179
Stream size                              : 35.1 KiB (0%)
Default                                  : Yes
Forced                                   : No

Download Links

OR

OR


Share this topic on FacebookShare this topic on GoogleShare this topic on MySpaceShare this topic on TwitterShare this topic on Yahoo

« Last Edit: August 10, 2018, 08:07:36 PM by JackRoSe »


Hit Thnx Button 🔳 N + Repute Button 🔳 Always Appreciate UploadeR 🤗 GiVe Respect GeT Respect :yu:

Tags:
 

Related Topics




Back to top