Father Figures (2017) | Боевик | Comédia

+ ShareSpark.net »  :::: Dubbed Zone (Dubbed English in Hindi) » English Movies Dubbed in Hindi
|- Skyscraper (2018) 720p - HC HDRip - x264 - Line Auds [Hindi + Tamil + Telugu + Eng] - MovCr [911MB]

Weekend Pay And Play 50% Off

Skyscraper (2018) 720p - HC HDRip - x264 - Line Auds [Hindi + Tamil + Telugu + Eng] - MovCr [911MB]

0 Members and 1 Guest are viewing this topic.

August 11, 2018, 12:01:05 AM
  • Semi Newbie
  • **
  • Topic Author
  • Thank You: 6
  • Reputation: 2
  • Activity:
    4.8%
  • Country: my
  • Posts: 24
  • Topics: 23
  • Join Date: Aug 2018
  • ShareSpark Member
Skyscraper (2018) 720p - HC HDRip - x264 - Line Auds [Hindi + Tamil + Telugu + Eng] - MovCr [911MB]





General
Unique ID : 252950308070755304576070207517795961023 (0xBE4C751002946ED0B0A2F6B8D0CA48BF)
Complete name : D:\[MovCr.com] - Skyscraper (2018) 720p - HDRip - x264 - Line Auds [Hindi + Tamil + Telugu + Eng] - 900MB - MovCr.mkv
Format : Matroska
Format version : Version 4 / Version 2
File size : 912 MiB
Duration : 1 h 42 min
Overall bit rate mode : Variable
Overall bit rate : 1 244 kb/s
Encoded date : UTC 2018-08-10 16:35:30
Writing application : mkvmerge v11.0.0 ('Alive') 32bit
Writing library : libebml v1.3.4 + libmatroska v1.4.5

Video
ID : 1
Format : AVC
Format/Info : Advanced Video Codec
Format profile : [email protected]
Format settings : CABAC / 4 Ref Frames
Format settings, CABAC : Yes
Format settings, ReFrames : 4 frames
Codec ID : V_MPEG4/ISO/AVC
Duration : 1 h 42 min
Bit rate : 892 kb/s
Width : 1 280 pixels
Height : 536 pixels
Display aspect ratio : 2.40:1
Frame rate mode : Constant
Frame rate : 30.000 FPS
Color space : YUV
Chroma subsampling : 4:2:0
Bit depth : 8 bits
Scan type : Progressive
Bits/(Pixel*Frame) : 0.043
Stream size : 653 MiB (72%)
Writing library : x264 core 155 r2901 7d0ff22
Encoding settings : cabac=1 / ref=3 / deblock=1:0:0 / analyse=0x3:0x113 / me=hex / subme=7 / psy=1 / psy_rd=1.00:0.00 / mixed_ref=1 / me_range=16 / chroma_me=1 / trellis=1 / 8x8dct=1 / cqm=0 / deadzone=21,11 / fast_pskip=1 / chroma_qp_offset=-2 / threads=17 / lookahead_threads=2 / sliced_threads=0 / nr=0 / decimate=1 / interlaced=0 / bluray_compat=0 / constrained_intra=0 / bframes=3 / b_pyramid=2 / b_adapt=1 / b_bias=0 / direct=1 / weightb=1 / open_gop=0 / weightp=2 / keyint=300 / keyint_min=30 / scenecut=40 / intra_refresh=0 / rc_lookahead=40 / rc=2pass / mbtree=1 / bitrate=892 / ratetol=1.0 / qcomp=0.60 / qpmin=0 / qpmax=69 / qpstep=4 / cplxblur=20.0 / qblur=0.5 / ip_ratio=1.40 / aq=1:1.00
Language : English
Default : Yes
Forced : No

Audio #1
ID : 2
Format : MPEG Audio
Format version : Version 2
Format profile : Layer 3
Format settings : Joint stereo / MS Stereo
Codec ID : A_MPEG/L3
Codec ID/Hint : MP3
Duration : 1 h 42 min
Bit rate mode : Variable
Bit rate : 86.1 kb/s
Nominal bit rate : 96.0 kb/s
Channel(s) : 2 channels
Sampling rate : 16.0 kHz
Frame rate : 27.778 FPS (576 SPF)
Compression mode : Lossy
Stream size : 63.1 MiB (7%)
Writing library : LAME3.99r
Encoding settings : -m j -V 4 -q 3 -lowpass 8 --abr 96
Language : Hindi
Default : Yes
Forced : No

Audio #2
ID : 3
Format : MPEG Audio
Format version : Version 2
Format profile : Layer 3
Format settings : Joint stereo / MS Stereo
Codec ID : A_MPEG/L3
Codec ID/Hint : MP3
Duration : 1 h 42 min
Bit rate mode : Variable
Bit rate : 91.0 kb/s
Nominal bit rate : 96.0 kb/s
Channel(s) : 2 channels
Sampling rate : 16.0 kHz
Frame rate : 27.778 FPS (576 SPF)
Compression mode : Lossy
Stream size : 66.7 MiB (7%)
Writing library : LAME3.99r
Encoding settings : -m j -V 4 -q 3 -lowpass 8 --abr 96
Language : Telugu
Default : No
Forced : No

Audio #3
ID : 4
Format : MPEG Audio
Format version : Version 1
Format profile : Layer 3
Format settings : Joint stereo / MS Stereo
Codec ID : A_MPEG/L3
Codec ID/Hint : MP3
Duration : 1 h 42 min
Bit rate mode : Variable
Bit rate : 84.5 kb/s
Nominal bit rate : 96.0 kb/s
Channel(s) : 2 channels
Sampling rate : 44.1 kHz
Frame rate : 38.281 FPS (1152 SPF)
Compression mode : Lossy
Stream size : 61.9 MiB (7%)
Writing library : LAME3.99r
Encoding settings : -m j -V 4 -q 3 -lowpass 15.1 --abr 96
Language : Tamil
Default : No
Forced : No

Audio #4
ID : 5
Format : MPEG Audio
Format version : Version 2
Format profile : Layer 3
Format settings : Joint stereo / MS Stereo
Codec ID : A_MPEG/L3
Codec ID/Hint : MP3
Duration : 1 h 42 min
Bit rate mode : Variable
Bit rate : 87.0 kb/s
Nominal bit rate : 96.0 kb/s
Channel(s) : 2 channels
Sampling rate : 16.0 kHz
Frame rate : 27.778 FPS (576 SPF)
Compression mode : Lossy
Stream size : 63.8 MiB (7%)
Writing library : LAME3.99r
Encoding settings : -m j -V 4 -q 3 -lowpass 8 --abr 96
Language : English
Default : No
Forced : No


SCREENSHOTS






DOWNLOAD LINKS

(Unconverted Openload)






 :thumbs:

Share this topic on FacebookShare this topic on GoogleShare this topic on MySpaceShare this topic on TwitterShare this topic on Yahoo

« Last Edit: August 11, 2018, 12:02:20 AM by King Challa »


Thanks given by:


Tags:
 

Related Topics




Back to top